Skip to main content

Dopapod Live at Tyrone Farm on 2013-04-21

Audio Preview

etree
Dopapod Live at Tyrone Farm on 2013-04-21

by Dopapod

Publication date 2013-04-21 (check for other copies)
Collection Dopapod
Band/Artist Dopapod
Set 1:

01. Intro/crowd
02. Black and White
03. Cloud World
04. 8 Years Ended *
05. The National Anthem ->
06. My Elephant vs. Your Elephant ** >
07. Vol. 3 #86 ^ ->
08. Onionhead ^^

Set 2:

01. Intro
02. French Bowling %
03. Blast
04. Nude >
05. Trapper Keeper
06. Psycho Nature
07. I Believe I Can Fly
08. stage banter
09. Off The Cuff

* with Mr. Rourke on turntables.
** inverted.
^ unfinished
^^ ending only; completed version from previous night in Northampton
% with Scott Flynn (Elephant Wrecking Ball, John Brown's Body) on trombone

Notes

Dopapod
2013-04-21
Tyrone Farm (Barn)
Pomfret, CT

MK22s were 21cm/110 degrees stage lip dfc
MK4s were hung from right of center 30' from stage ORTF

Source:
Schoeps MK22>KC5>CMC6>Sonosax SX-R4 &
Schoeps mk4>Nbob actives>Naiant PFAs>Sonosax SX-R4 &
Soundboard>Sonosax SX-R4 (24bit/48khz)

Lineage:
WAV>USB>Macbook Pro>Audacity(mixing)>Wave Editor(tracking,fades,resample(izotope)/dither(mbit+)to 16 bit/44.1k)>XAct(FLAC 8,ffp,fix sbe)

Taped by: Andy Murray
Transferred by: Andy Murray

Thanks to Luke Stratton for the board feed.

There is a noise that appears for a short bit during set 2 when Scott Flynn starts playing.

2 Sets

Mom & Dad and Elephant Wrecking Ball opened.

Eli Winderman - Keyboards
Neal "Fro" Evans - Drums
Rob Compa - Guitar
Chuck Jones - Bass

http://www.dopapod.com

length expanded size cdr WAVE problems fmt ratio filename
1:10.20 12395084 B --- -- ----- wav 1.0000 dopapod2013-04-21_mk22mk4sbmix_1644_d1t01.wav
10:00.50 105957644 B --- -- ----- wav 1.0000 dopapod2013-04-21_mk22mk4sbmix_1644_d1t02.wav
11:46.02 124543148 B --- -- ----- wav 1.0000 dopapod2013-04-21_mk22mk4sbmix_1644_d1t03.wav
10:14.61 108453116 B --- -- ----- wav 1.0000 dopapod2013-04-21_mk22mk4sbmix_1644_d1t04.wav
4:57.22 52442588 B --- -- ----- wav 1.0000 dopapod2013-04-21_mk22mk4sbmix_1644_d1t05.wav
6:18.73 66850940 B --- -- ----- wav 1.0000 dopapod2013-04-21_mk22mk4sbmix_1644_d1t06.wav
5:14.56 55521356 B --- -- ----- wav 1.0000 dopapod2013-04-21_mk22mk4sbmix_1644_d1t07.wav
8:12.70 86953484 B --- -- ----- wav 1.0000 dopapod2013-04-21_mk22mk4sbmix_1644_d1t08.wav
0:30.68 5451980 B --- -- ----- wav 1.0000 dopapod2013-04-21_mk22mk4sbmix_1644_d2t01.wav
12:39.69 134049932 B --- -- ----- wav 1.0000 dopapod2013-04-21_mk22mk4sbmix_1644_d2t02.wav
10:25.23 110304140 B --- -- ----- wav 1.0000 dopapod2013-04-21_mk22mk4sbmix_1644_d2t03.wav
4:25.55 46875404 B --- -- ----- wav 1.0000 dopapod2013-04-21_mk22mk4sbmix_1644_d2t04.wav
11:17.42 119521628 B --- -- ----- wav 1.0000 dopapod2013-04-21_mk22mk4sbmix_1644_d2t05.wav
8:25.33 89159660 B --- -- ----- wav 1.0000 dopapod2013-04-21_mk22mk4sbmix_1644_d2t06.wav
4:44.52 50219948 B --- -- ----- wav 1.0000 dopapod2013-04-21_mk22mk4sbmix_1644_d2t07.wav
3:31.09 37241612 B --- -- ----- wav 1.0000 dopapod2013-04-21_mk22mk4sbmix_1644_d2t08.wav
9:21.31 99033356 B --- -- ----- wav 1.0000 dopapod2013-04-21_mk22mk4sbmix_1644_d2t09.wav
123:17.61 1304975020 B 1.0000 (17 files)

comment
Reviews

There are no reviews yet. Be the first one to write a review.
DOWNLOAD OPTIONS
In Collection
Dopapod
In Collection
Live Music Archive
Uploaded by
andyjah
on 4/23/2013
Views
150
SIMILAR ITEMS (based on metadata)
Dopapod
by Dopapod
etree
eye 1,365
favorite 0
comment 2
favoritefavoritefavoritefavoritefavorite ( 2 reviews )
Source: Busman BSC2/K11 + Soundboard > Tascam DR-680 (24-bit/48k).
Dopapod
by Dopapod
etree
eye 159
favorite 0
comment 0
Source: Schoeps MK22/MK4>KC5>CMC6>Sonosax SX-R4(24bit/48khz) & SB>SX-R4
Dopapod
by Dopapod
etree
eye 158
favorite 0
comment 0
Source: Neumann KM184s->Lunatec V3->XLR>Tascam HD-P2 (24/48)
Dopapod
by Dopapod
etree
eye 76
favorite 0
comment 0
Source: Schoeps MK22/MK4/sb>Sonosax SX-R4
Dopapod
by Dopapod
etree
eye 60
favorite 0
comment 0
Source: Schoeps MK22/MK4/sb>Sonosax SX-R4
Dopapod
by Dopapod
etree
eye 169
favorite 0
comment 1
favoritefavoritefavoritefavoritefavorite ( 1 reviews )
Source: Schoeps MK22>KC5>CMC6>Sonosax SX-M2>Apogee Mini-me(aes out@24 bit/96khz)>COAX>Edirol R-44
Dopapod
by Dopapod
etree
eye 204
favorite 0
comment 0
Source: Schoeps MK22>KC5>CMC6>Sonosax SX-M2>Apogee Mini-me(aes out@24 bit/96khz)>COAX>Edirol R-44
Dopapod
by Dopapod
etree
eye 282
favorite 0
comment 0
Source: Schoeps MK22>CMC6>Sonosax SX-M2>Apogee Mini-me(@24 Bit 96khz aes out)>COAX>Edirol R-44
Dopapod
by Dopapod
etree
eye 116
favorite 0
comment 0
Source: Schoeps MK22>KC5>CMC6>Sonosax SX-M2>Apogee Mini-me(aes out,24bit/96khz)>COAX>Edirol R-44 + Soundboard>R-44
Dopapod
by Dopapod
etree
eye 92
favorite 0
comment 0
Source: Schoeps MK22>CMC6>Sonosax SX-M2>Apogee Mini-me(@24 Bit 96khz aes out)>COAX>Edirol R-44+soundboard feed>R-44